:Search:

Spaceman 2024 1080p NF WEB DL H264 EniaHD

Torrent:
Thumbnail:
Trailer:
Similar Posts:
Name Uploaded Size Se Le Upl. by
Spaceman 2024 1080p NF WEB DL H264 EniaHD 2024-04-03 8.1 GB 24 34 ReXStAr
A Dark World The Complete Spaceman Chronicles 1 3 Tom Abrahams 2024-03-30 623.0 MB 7 24 ComGetMe
Spaceman 2024 iTA ENG WEBDL 2160p HEVC HDR x265 CYBER mkv 2024-03-29 16.2 GB 3 14 eXpOrTeRICV
Spaceman 2024 MULTI 2160p WEB DL DV HDR H265 AOC 2024-03-27 18.5 GB 6 55 atomicfusion
Spaceman 2024 HDR 2160p WEB H265 BaldGlossyPumaOfRefinement TGx 2024-03-27 14.7 GB 0 184 TGxMovies
SOUNDTRACKS Max Richter Spaceman Original Motion Picture Soundtrack 2… 2024-03-21 252.8 MB 6 11 eichbaum
Spaceman 2024 UpScaled 2160p H265 WebDl Rip 10 bit DV HDR10 i 2024-03-17 3.7 GB 36 27 licdom
Spaceman 2024 1080p H265 WebDl Rip ita eng AC3 5 1 sub ita eng 2024-03-17 1.8 GB 43 11 licdom
Spaceman 2024 1080p 10bit WEBRip 6CH x265 HEVC PSA 2024-03-12 1.6 GB 38 45 BedBug
Spaceman 2024 WEB NFLX 1080p HEVC AAC 2 0 x265 PANAM 2024-03-11 6.0 GB 14 8 logi
Uploader: ReXStAr
Type: HD
Genre: Drama, Science Fiction
Images:
Spaceman 2024 1080p NF WEB DL H264 EniaHD
Spaceman 2024 1080p NF WEB DL H264 EniaHD
Spaceman 2024 1080p NF WEB DL H264 EniaHD
Spaceman 2024 1080p NF WEB DL H264 EniaHD
Spaceman 2024 1080p NF WEB DL H264 EniaHD
Spaceman 2024 1080p NF WEB DL H264 EniaHD
Info Hash: 8EDDAAB433EB5BDE69FE7536371359A67AE38C41
Language: English
Description: General
Unique ID : 329906336703516569529960919691220091823 (0xF831A6368FB43B9BF44BBC08881E03AF)
Complete name : Spaceman.2024.1080p.NF.WEB-DL.H264-EniaHD.mkv
Format : Matroska
Format version : Version 4
File size : 8.15 GiB
Duration : 1 h 48 min
Overall bit rate mode : Variable
Overall bit rate : 10.7 Mb/s
Frame rate : 24.000 FPS
Movie name : Spaceman (2024) - EniaHD
Writing application : mkvmerge v57.0.0 ('Till The End') 64-bit
Writing library : libebml v1.4.2 + libmatroska v1.6.4
Video
ID : 1
Format : AVC
Format/Info : Advanced Video Codec
Format profile : High@L4
Format settings : CABAC / 4 Ref Frames
Format settings, CABAC : Yes
Format settings, Reference fra : 4 frames
Codec ID : V_MPEG4/ISO/AVC
Duration : 1 h 48 min
Bit rate mode : Variable
Bit rate : 7 377 kb/s
Maximum bit rate : 20.0 Mb/s
Width : 1 920 pixels
Height : 1 080 pixels
Display aspect ratio : 16:9
Frame rate mode : Constant
Frame rate : 24.000 FPS
Color space : YUV
Chroma subsampling : 4:2:0
Bit depth : 8 bits
Scan type : Progressive
Bits/(Pixel*Frame) : 0.148
Stream size : 5.61 GiB (69%)
Writing library : x264 core 148 r2727 7d026e8
Encoding settings : cabac=1 / ref=4 / deblock=1:0:0 / analyse=0x3:0x111 / me=umh / subme=10 / psy=1 / psy_rd=1.00:0.00 / mixed_ref=1 / me_range=120 / chroma_me=1 / trellis=2 / 8x8dct=1 / cqm=0 / deadzone=21,11 / fast_pskip=1 / chroma_qp_offset=-2 / threads=6 / lookahead_threads=1 / sliced_threads=0 / nr=0 / decimate=1 / interlaced=0 / bluray_compat=0 / stitchable=1 / constrained_intra=0 / bframes=16 / b_pyramid=2 / b_adapt=2 / b_bias=0 / direct=3 / weightb=1 / open_gop=0 / weightp=2 / keyint=240 / keyint_min=121 / scenecut=0 / intra_refresh=0 / rc_lookahead=240 / rc=crf / mbtree=1 / crf=16.0 / qcomp=0.50 / qpmin=6 / qpmax=51 / qpstep=4 / vbv_maxrate=20000 / vbv_bufsize=25000 / crf_max=0.0 / nal_hrd=vbr / filler=0 / ip_ratio=1.40 / aq=1:0.80
Default : Yes
Forced : No
Audio #1
ID : 2
Format : AC-3
Format/Info : Audio Coding 3
Commercial name : Dolby Digital
Codec ID : A_AC3
Duration : 1 h 48 min
Bit rate mode : Constant
Bit rate : 384 kb/s
Channel(s) : 6 channels
Channel layout : L R C LFE Ls Rs
Sampling rate : 48.0 kHz
Frame rate : 31.250 FPS (1536 SPF)
Compression mode : Lossy
Stream size : 299 MiB (4%)
Title : Jaskier
Language : Russian
Service kind : Complete Main
Default : Yes
Forced : No
Audio #2
ID : 3
Format : AC-3
Format/Info : Audio Coding 3
Commercial name : Dolby Digital
Codec ID : A_AC3
Duration : 1 h 48 min
Bit rate mode : Constant
Bit rate : 384 kb/s
Channel(s) : 6 channels
Channel layout : L R C LFE Ls Rs
Sampling rate : 48.0 kHz
Frame rate : 31.250 FPS (1536 SPF)
Compression mode : Lossy
Stream size : 299 MiB (4%)
Title : TVShows
Language : Russian
Service kind : Complete Main
Default : No
Forced : No
Audio #3
ID : 4
Format : AAC LC
Format/Info : Advanced Audio Codec Low Complexity
Codec ID : A_AAC-2
Duration : 1 h 48 min
Bit rate : 192 kb/s
Channel(s) : 2 channels
Channel layout : L R
Sampling rate : 48.0 kHz
Frame rate : 46.875 FPS (1024 SPF)
Compression mode : Lossy
Stream size : 150 MiB (2%)
Title : Red Head Sound
Language : Russian
Default : No
Forced : No
Audio #4
ID : 5
Format : AC-3
Format/Info : Audio Coding 3
Commercial name : Dolby Digital
Codec ID : A_AC3
Duration : 1 h 48 min
Bit rate mode : Constant
Bit rate : 192 kb/s
Channel(s) : 2 channels
Channel layout : L R
Sampling rate : 48.0 kHz
Frame rate : 31.250 FPS (1536 SPF)
Compression mode : Lossy
Stream size : 150 MiB (2%)
Title : HDrezka Studio
Language : Russian
Service kind : Complete Main
Default : No
Forced : No
Audio #5
ID : 6
Format : AC-3
Format/Info : Audio Coding 3
Commercial name : Dolby Digital
Codec ID : A_AC3
Duration : 1 h 48 min
Bit rate mode : Constant
Bit rate : 640 kb/s
Channel(s) : 6 channels
Channel layout : L R C LFE Ls Rs
Sampling rate : 48.0 kHz
Frame rate : 31.250 FPS (1536 SPF)
Compression mode : Lossy
Stream size : 499 MiB (6%)
Title : ViruseProject
Language : Russian
Service kind : Complete Main
Default : No
Forced : No
Audio #6
ID : 7
Format : E-AC-3 JOC
Format/Info : Enhanced AC-3 with Joint Object Coding
Commercial name : Dolby Digital Plus with Dolby Atmos
Codec ID : A_EAC3
Duration : 1 h 48 min
Bit rate mode : Constant
Bit rate : 768 kb/s
Channel(s) : 6 channels
Channel layout : L R C LFE Ls Rs
Sampling rate : 48.0 kHz
Frame rate : 31.250 FPS (1536 SPF)
Compression mode : Lossy
Stream size : 598 MiB (7%)
Title : Postmodern
Language : Ukrainian
Service kind : Complete Main
Default : No
Forced : No
Complexity index : 16
Number of dynamic objects : 15
Bed channel count : 1 channel
Bed channel configuration : LFE
Audio #7
ID : 8
Format : E-AC-3 JOC
Format/Info : Enhanced AC-3 with Joint Object Coding
Commercial name : Dolby Digital Plus with Dolby Atmos
Codec ID : A_EAC3
Duration : 1 h 48 min
Bit rate mode : Constant
Bit rate : 768 kb/s
Channel(s) : 6 channels
Channel layout : L R C LFE Ls Rs
Sampling rate : 48.0 kHz
Frame rate : 31.250 FPS (1536 SPF)
Compression mode : Lossy
Stream size : 598 MiB (7%)
Title : English
Language : English
Service kind : Complete Main
Default : No
Forced : No
Complexity index : 16
Number of dynamic objects : 15
Bed channel count : 1 channel
Bed channel configuration : LFE
Text #1
ID : 9
Format : UTF-8
Codec ID : S_TEXT/UTF8
Codec ID/Info : UTF-8 Plain Text
Duration : 18 min 48 s
Bit rate : 1 b/s
Frame rate : 0.003 FPS
Count of elements : 3
Stream size : 194 Bytes (0%)
Title : Russian (Forced)
Language : Russian
Default : Yes
Forced : No
Text #2
ID : 10
Format : UTF-8
Codec ID : S_TEXT/UTF8
Codec ID/Info : UTF-8 Plain Text
Duration : 1 h 46 min
Bit rate : 65 b/s
Frame rate : 0.154 FPS
Count of elements : 986
Stream size : 51.2 KiB (0%)
Title : Russian
Language : Russian
Default : No
Forced : No
Text #3
ID : 11
Format : UTF-8
Codec ID : S_TEXT/UTF8
Codec ID/Info : UTF-8 Plain Text
Duration : 28 s 375 ms
Bit rate : 106 b/s
Frame rate : 0.176 FPS
Count of elements : 5
Stream size : 376 Bytes (0%)
Title : English (Forced)
Language : English
Default : No
Forced : No
Text #4
ID : 12
Format : UTF-8
Codec ID : S_TEXT/UTF8
Codec ID/Info : UTF-8 Plain Text
Duration : 1 h 46 min
Bit rate : 51 b/s
Frame rate : 0.195 FPS
Count of elements : 1251
Stream size : 40.4 KiB (0%)
Title : English (SDH)
Language : English
Default : No
Forced : No
Text #5
ID : 13
Format : UTF-8
Codec ID : S_TEXT/UTF8
Codec ID/Info : UTF-8 Plain Text
Duration : 1 h 39 min
Bit rate : 57 b/s
Frame rate : 0.200 FPS
Count of elements : 1196
Stream size : 42.0 KiB (0%)
Title : French (SDH)
Language : French
Default : No
Forced : No
Text #6
ID : 14
Format : UTF-8
Codec ID : S_TEXT/UTF8
Codec ID/Info : UTF-8 Plain Text
Duration : 1 h 39 min
Bit rate : 57 b/s
Frame rate : 0.200 FPS
Count of elements : 1199
Stream size : 42.2 KiB (0%)
Title : German (SDH)
Language : German
Default : No
Forced : No
Text #7
ID : 15
Format : UTF-8
Codec ID : S_TEXT/UTF8
Codec ID/Info : UTF-8 Plain Text
Duration : 1 h 46 min
Bit rate : 56 b/s
Frame rate : 0.155 FPS
Count of elements : 991
Stream size : 43.9 KiB (0%)
Title : Hebrew
Language : Hebrew
Default : No
Forced : No
Text #8
ID : 16
Format : UTF-8
Codec ID : S_TEXT/UTF8
Codec ID/Info : UTF-8 Plain Text
Duration : 1 h 46 min
Bit rate : 55 b/s
Frame rate : 0.195 FPS
Count of elements : 1253
Stream size : 43.2 KiB (0%)
Title : Italian (SDH)
Language : Italian
Default : No
Forced : No
Text #9
ID : 17
Format : UTF-8
Codec ID : S_TEXT/UTF8
Codec ID/Info : UTF-8 Plain Text
Duration : 1 h 39 min
Bit rate : 57 b/s
Frame rate : 0.204 FPS
Count of elements : 1222
Stream size : 42.0 KiB (0%)
Title : Portuguese (SDH)
Language : Portuguese (BR)
Default : No
Forced : No
Text #10
ID : 18
Format : UTF-8
Codec ID : S_TEXT/UTF8
Codec ID/Info : UTF-8 Plain Text
Duration : 1 h 46 min
Bit rate : 38 b/s
Frame rate : 0.152 FPS
Count of elements : 975
Stream size : 29.8 KiB (0%)
Title : Romanian
Language : Romanian
Default : No
Forced : No
Text #11
ID : 19
Format : UTF-8
Codec ID : S_TEXT/UTF8
Codec ID/Info : UTF-8 Plain Text
Duration : 1 h 39 min
Bit rate : 52 b/s
Frame rate : 0.223 FPS
Count of elements : 1333
Stream size : 38.7 KiB (0%)
Title : Spanish (SDH)
Language : Spanish (Latin America)
Default : No
Forced : No
Text #12
ID : 20
Format : UTF-8
Codec ID : S_TEXT/UTF8
Codec ID/Info : UTF-8 Plain Text
Duration : 1 h 39 min
Bit rate : 0 b/s
Frame rate : 0.002 FPS
Count of elements : 14
Stream size : 740 Bytes (0%)
Title : Ukrainian (Forced)
Language : Ukrainian
Default : No
Forced : No
Text #13
ID : 21
Format : UTF-8
Codec ID : S_TEXT/UTF8
Codec ID/Info : UTF-8 Plain Text
Duration : 1 h 46 min
Bit rate : 64 b/s
Frame rate : 0.155 FPS
Count of elements : 992
Stream size : 50.6 KiB (0%)
Title : Ukrainian
Language : Ukrainian
Default : No
Forced : No
Menu
00:00:00.000 : Part 01
01:39:56.000 : Credits
Category: Movies
Size: 8.1 GB
Added: April 3, 2024, 6:20 p.m.
Peers: Seeders: 24, Leechers: 34,
Multiple Quality Available: M.Q.A
IMDB tt11097384
IMDB Title Spaceman
IMDB Genre Adventure, Drama, Sci-Fi,
IMDB Runtime 1:47:00 Hours
IMDB Rating 6
Director Johan Renck
IMDB cast Adam Sandler, Carey Mulligan, Paul Dano
IMDB plot Half a year into his solo mission on the edge of the solar system, an astronaut concerned with the state of his life back on Earth is helped by an ancient creature he discovers in the bowels of his ship.

Comment below